  0
SECTION
  2
HEADER
  9
$ACADVER
  1
AC1015
  9
$ACADMAINTVER
 70
     6
  9
$DWGCODEPAGE
  3
ANSI_1252
  9
$INSBASE
 10
0.0
 20
0.0
 30
0.0
  9
$EXTMIN
 10
0.0
 20
0.0
 30
0.0
  9
$EXTMAX
 10
2970.0
 20
2100.0
 30
0.0
  9
$LIMMIN
 10
0.0
 20
0.0
  9
$LIMMAX
 10
2970.0
 20
2100.0
  9
$ORTHOMODE
 70
     0
  9
$REGENMODE
 70
     1
  9
$FILLMODE
 70
     1
  9
$QTEXTMODE
 70
     0
  9
$MIRRTEXT
 70
     1
  9
$LTSCALE
 40
10.0
  9
$ATTMODE
 70
     1
  9
$TEXTSIZE
 40
35.0
  9
$TRACEWID
 40
1.0
  9
$TEXTSTYLE
  7
Standard
  9
$CLAYER
  8
0
  9
$CELTYPE
  6
ByLayer
  9
$CECOLOR
 62
   256
  9
$CELTSCALE
 40
1.0
  9
$DISPSILH
 70
     0
  9
$DIMSCALE
 40
1.0
  9
$DIMASZ
 40
33.02
  9
$DIMEXO
 40
0.0
  9
$DIMDLI
 40
3.75
  9
$DIMRND
 40
0.0
  9
$DIMDLE
 40
0.0
  9
$DIMEXE
 40
5.0
  9
$DIMTP
 40
0.0
  9
$DIMTM
 40
0.0
  9
$DIMTXT
 40
35.0
  9
$DIMCEN
 40
2.5
  9
$DIMTSZ
 40
0.0
  9
$DIMTOL
 70
     0
  9
$DIMLIM
 70
     0
  9
$DIMTIH
 70
     1
  9
$DIMTOH
 70
     1
  9
$DIMSE1
 70
     0
  9
$DIMSE2
 70
     0
  9
$DIMTAD
 70
     1
  9
$DIMZIN
 70
     0
  9
$DIMBLK
  1

  9
$DIMASO
 70
     1
  9
$DIMSHO
 70
     1
  9
$DIMPOST
  1

  9
$DIMAPOST
  1

  9
$DIMALT
 70
     0
  9
$DIMALTD
 70
     3
  9
$DIMALTF
 40
0.0393700787
  9
$DIMLFAC
 40
1.0
  9
$DIMTOFL
 70
     1
  9
$DIMTVP
 40
0.0
  9
$DIMTIX
 70
     0
  9
$DIMSOXD
 70
     0
  9
$DIMSAH
 70
     0
  9
$DIMBLK1
  1

  9
$DIMBLK2
  1

  9
$DIMSTYLE
  2
ISO-25
  9
$DIMCLRD
 70
     0
  9
$DIMCLRE
 70
     0
  9
$DIMCLRT
 70
     0
  9
$DIMTFAC
 40
1.0
  9
$DIMGAP
 40
15.24
  9
$DIMJUST
 70
     0
  9
$DIMSD1
 70
     0
  9
$DIMSD2
 70
     0
  9
$DIMTOLJ
 70
     0
  9
$DIMTZIN
 70
     0
  9
$DIMALTZ
 70
     0
  9
$DIMALTTZ
 70
     0
  9
$DIMUPT
 70
     0
  9
$DIMDEC
 70
     1
  9
$DIMTDEC
 70
     1
  9
$DIMALTU
 70
     2
  9
$DIMALTTD
 70
     3
  9
$DIMTXSTY
  7
Standard
  9
$DIMAUNIT
 70
     0
  9
$DIMADEC
 70
     0
  9
$DIMALTRND
 40
0.0
  9
$DIMAZIN
 70
     0
  9
$DIMDSEP
 70
    44
  9
$DIMATFIT
 70
     3
  9
$DIMFRAC
 70
     0
  9
$DIMLDRBLK
  1

  9
$DIMLUNIT
 70
     2
  9
$DIMLWD
 70
    -2
  9
$DIMLWE
 70
    -2
  9
$DIMTMOVE
 70
     0
  9
$LUNITS
 70
     2
  9
$LUPREC
 70
     2
  9
$SKETCHINC
 40
1.0
  9
$FILLETRAD
 40
10.0
  9
$AUNITS
 70
     0
  9
$AUPREC
 70
     0
  9
$MENU
  1
.
  9
$ELEVATION
 40
0.0
  9
$PELEVATION
 40
0.0
  9
$THICKNESS
 40
0.0
  9
$LIMCHECK
 70
     0
  9
$CHAMFERA
 40
0.0
  9
$CHAMFERB
 40
0.0
  9
$CHAMFERC
 40
0.0
  9
$CHAMFERD
 40
0.0
  9
$SKPOLY
 70
     0
  9
$TDCREATE
 40
2459682.457168438
  9
$TDUCREATE
 40
2459682.373835104
  9
$TDUPDATE
 40
2459682.457168831
  9
$TDUUPDATE
 40
2459682.373835498
  9
$TDINDWG
 40
0.0000000116
  9
$TDUSRTIMER
 40
0.0000000116
  9
$USRTIMER
 70
     1
  9
$ANGBASE
 50
0.0
  9
$ANGDIR
 70
     0
  9
$PDMODE
 70
     0
  9
$PDSIZE
 40
-1.0
  9
$PLINEWID
 40
0.0
  9
$SPLFRAME
 70
     0
  9
$SPLINETYPE
 70
     6
  9
$SPLINESEGS
 70
     8
  9
$HANDSEED
  5
17D
  9
$SURFTAB1
 70
     6
  9
$SURFTAB2
 70
     6
  9
$SURFTYPE
 70
     6
  9
$SURFU
 70
     6
  9
$SURFV
 70
     6
  9
$UCSBASE
  2

  9
$UCSNAME
  2

  9
$UCSORG
 10
0.0
 20
0.0
 30
0.0
  9
$UCSXDIR
 10
1.0
 20
0.0
 30
0.0
  9
$UCSYDIR
 10
0.0
 20
1.0
 30
0.0
  9
$UCSORTHOREF
  2

  9
$UCSORTHOVIEW
 70
     0
  9
$UCSORGTOP
 10
0.0
 20
0.0
 30
0.0
  9
$UCSORGBOTTOM
 10
0.0
 20
0.0
 30
0.0
  9
$UCSORGLEFT
 10
0.0
 20
0.0
 30
0.0
  9
$UCSORGRIGHT
 10
0.0
 20
0.0
 30
0.0
  9
$UCSORGFRONT
 10
0.0
 20
0.0
 30
0.0
  9
$UCSORGBACK
 10
0.0
 20
0.0
 30
0.0
  9
$PUCSBASE
  2

  9
$PUCSNAME
  2

  9
$PUCSORG
 10
0.0
 20
0.0
 30
0.0
  9
$PUCSXDIR
 10
1.0
 20
0.0
 30
0.0
  9
$PUCSYDIR
 10
0.0
 20
1.0
 30
0.0
  9
$PUCSORTHOREF
  2

  9
$PUCSORTHOVIEW
 70
     0
  9
$PUCSORGTOP
 10
0.0
 20
0.0
 30
0.0
  9
$PUCSORGBOTTOM
 10
0.0
 20
0.0
 30
0.0
  9
$PUCSORGLEFT
 10
0.0
 20
0.0
 30
0.0
  9
$PUCSORGRIGHT
 10
0.0
 20
0.0
 30
0.0
  9
$PUCSORGFRONT
 10
0.0
 20
0.0
 30
0.0
  9
$PUCSORGBACK
 10
0.0
 20
0.0
 30
0.0
  9
$USERI1
 70
     0
  9
$USERI2
 70
     0
  9
$USERI3
 70
     0
  9
$USERI4
 70
     0
  9
$USERI5
 70
     0
  9
$USERR1
 40
0.0
  9
$USERR2
 40
0.0
  9
$USERR3
 40
0.0
  9
$USERR4
 40
0.0
  9
$USERR5
 40
0.0
  9
$WORLDVIEW
 70
     1
  9
$SHADEDGE
 70
     3
  9
$SHADEDIF
 70
    70
  9
$TILEMODE
 70
     1
  9
$MAXACTVP
 70
    64
  9
$PINSBASE
 10
0.0
 20
0.0
 30
0.0
  9
$PLIMCHECK
 70
     0
  9
$PEXTMIN
 10
1.0000000000E+20
 20
1.0000000000E+20
 30
1.0000000000E+20
  9
$PEXTMAX
 10
-1.0000000000E+20
 20
-1.0000000000E+20
 30
-1.0000000000E+20
  9
$PLIMMIN
 10
0.0
 20
0.0
  9
$PLIMMAX
 10
420.0
 20
297.0
  9
$UNITMODE
 70
     0
  9
$VISRETAIN
 70
     1
  9
$PLINEGEN
 70
     0
  9
$PSLTSCALE
 70
     1
  9
$TREEDEPTH
 70
  3020
  9
$CMLSTYLE
  2
Standard
  9
$CMLJUST
 70
     0
  9
$CMLSCALE
 40
20.0
  9
$PROXYGRAPHICS
 70
     1
  9
$MEASUREMENT
 70
     1
  9
$CELWEIGHT
370
    -1
  9
$ENDCAPS
280
     0
  9
$JOINSTYLE
280
     0
  9
$LWDISPLAY
290
     1
  9
$INSUNITS
 70
     4
  9
$HYPERLINKBASE
  1

  9
$STYLESHEET
  1

  9
$XEDIT
290
     1
  9
$CEPSNTYPE
380
     0
  9
$PSTYLEMODE
290
     1
  9
$FINGERPRINTGUID
  2
{8DB99343-380B-4E9B-BA95-94E3F6C01934}
  9
$VERSIONGUID
  2
{FAEB1C32-E019-11D5-929B-00C0DF256EC4}
  9
$EXTNAMES
290
     1
  9
$PSVPSCALE
 40
0.0
  9
$OLESTARTUP
290
     0
  0
ENDSEC
  0
SECTION
  2
CLASSES
  0
CLASS
  1
ACDBDICTIONARYWDFLT
  2
AcDbDictionaryWithDefault
  3
ObjectDBX Classes
 90
        0
280
     0
281
     0
  0
CLASS
  1
VISUALSTYLE
  2
AcDbVisualStyle
  3
ObjectDBX Classes
 90
     4095
280
     0
281
     0
  0
CLASS
  1
MATERIAL
  2
AcDbMaterial
  3
ObjectDBX Classes
 90
     1153
280
     0
281
     0
  0
CLASS
  1
SCALE
  2
AcDbScale
  3
ObjectDBX Classes
 90
     1153
280
     0
281
     0
  0
CLASS
  1
TABLESTYLE
  2
AcDbTableStyle
  3
ObjectDBX Classes
 90
     4095
280
     0
281
     0
  0
CLASS
  1
MLEADERSTYLE
  2
AcDbMLeaderStyle
  3
ACDB_MLEADERSTYLE_CLASS
 90
     4095
280
     0
281
     0
  0
CLASS
  1
SUN
  2
AcDbSun
  3
SCENEOE
 90
     1153
280
     0
281
     0
  0
CLASS
  1
ACDBPLACEHOLDER
  2
AcDbPlaceHolder
  3
ObjectDBX Classes
 90
        0
280
     0
281
     0
  0
CLASS
  1
LAYOUT
  2
AcDbLayout
  3
ObjectDBX Classes
 90
        0
280
     0
281
     0
  0
ENDSEC
  0
SECTION
  2
TABLES
  0
TABLE
  2
VPORT
  5
8
330
0
100
AcDbSymbolTable
 70
     1
  0
VPORT
  5
29
330
8
100
AcDbSymbolTableRecord
100
AcDbViewportTableRecord
  2
*Active
 70
     0
 10
0.0
 20
0.0
 11
1.0
 21
1.0
 12
1485.0
 22
1050.0
 13
0.0
 23
0.0
 14
10.0
 24
10.0
 15
10.0
 25
10.0
 16
0.0
 26
0.0
 36
1.0
 17
0.0
 27
0.0
 37
0.0
 40
2100.0
 41
1.4142857143
 42
50.0
 43
0.0
 44
0.0
 50
0.0
 51
0.0
 71
     0
 72
  2000
 73
     1
 74
     3
 75
     0
 76
     0
 77
     0
 78
     0
281
     0
 65
     1
110
0.0
120
0.0
130
0.0
111
1.0
121
0.0
131
0.0
112
0.0
122
1.0
132
0.0
 79
     0
146
0.0
  0
ENDTAB
  0
TABLE
  2
LTYPE
  5
5
330
0
100
AcDbSymbolTable
 70
     6
  0
LTYPE
  5
14
330
5
100
AcDbSymbolTableRecord
100
AcDbLinetypeTableRecord
  2
ByBlock
 70
     0
  3

 72
    65
 73
     0
 40
0.0
  0
LTYPE
  5
15
330
5
100
AcDbSymbolTableRecord
100
AcDbLinetypeTableRecord
  2
ByLayer
 70
     0
  3

 72
    65
 73
     0
 40
0.0
  0
LTYPE
  5
16
330
5
100
AcDbSymbolTableRecord
100
AcDbLinetypeTableRecord
  2
Continuous
 70
     0
  3
Solid line
 72
    65
 73
     0
 40
0.0
  0
LTYPE
  5
6E
330
5
100
AcDbSymbolTableRecord
100
AcDbLinetypeTableRecord
  2
HIDDEN
 70
     0
  3
Hidden __ __ __ __ __ __ __ __ __ __ __ __ __ __
 72
    65
 73
     2
 40
1.905
 49
1.27
 74
     0
 49
-0.635
 74
     0
  0
LTYPE
  5
6F
330
5
100
AcDbSymbolTableRecord
100
AcDbLinetypeTableRecord
  2
PHANTOM
 70
     0
  3
Phantom ______  __  __  ______  __  __  ______
 72
    65
 73
     6
 40
12.7
 49
6.35
 74
     0
 49
-1.27
 74
     0
 49
1.27
 74
     0
 49
-1.27
 74
     0
 49
1.27
 74
     0
 49
-1.27
 74
     0
  0
LTYPE
  5
70
330
5
100
AcDbSymbolTableRecord
100
AcDbLinetypeTableRecord
  2
CENTER
 70
     0
  3
Center ____ _ ____ _ ____ _ ____ _ ____ _ ____
 72
    65
 73
     4
 40
10.16
 49
6.35
 74
     0
 49
-1.27
 74
     0
 49
1.27
 74
     0
 49
-1.27
 74
     0
  0
LTYPE
  5
71
330
5
100
AcDbSymbolTableRecord
100
AcDbLinetypeTableRecord
  2
CENTERX2
 70
     0
  3
Center (2x) ________  __  ________  __  _____
 72
    65
 73
     4
 40
20.32
 49
12.7
 74
     0
 49
-2.54
 74
     0
 49
2.54
 74
     0
 49
-2.54
 74
     0
  0
LTYPE
  5
72
330
5
100
AcDbSymbolTableRecord
100
AcDbLinetypeTableRecord
  2
DOT2
 70
     0
  3
Dot (.5x) ........................................
 72
    65
 73
     2
 40
0.635
 49
0.0
 74
     0
 49
-0.635
 74
     0
  0
ENDTAB
  0
TABLE
  2
LAYER
  5
2
330
0
100
AcDbSymbolTable
 70
    11
  0
LAYER
  5
10
330
2
100
AcDbSymbolTableRecord
100
AcDbLayerTableRecord
  2
0
 70
     0
 62
     7
  6
Continuous
370
    -3
390
F
  0
LAYER
  5
73
330
2
100
AcDbSymbolTableRecord
100
AcDbLayerTableRecord
  2
BEMAßUNG
 70
     0
 62
     7
  6
Continuous
370
    -1
390
F
  0
LAYER
  5
74
330
2
100
AcDbSymbolTableRecord
100
AcDbLayerTableRecord
  2
KONTUR
 70
     0
 62
     2
  6
Continuous
370
    -1
390
F
  0
LAYER
  5
75
330
2
100
AcDbSymbolTableRecord
100
AcDbLayerTableRecord
  2
MITTELLINIE
 70
     0
 62
     3
  6
CENTERX2
370
    -3
390
F
  0
LAYER
  5
76
330
2
100
AcDbSymbolTableRecord
100
AcDbLayerTableRecord
  2
RAHMEN
 70
     0
 62
     7
  6
Continuous
370
    -1
390
F
  0
LAYER
  5
77
330
2
100
AcDbSymbolTableRecord
100
AcDbLayerTableRecord
  2
SCHNITTLINIE
 70
     0
 62
     2
  6
CENTERX2
370
    -3
390
F
  0
LAYER
  5
78
330
2
100
AcDbSymbolTableRecord
100
AcDbLayerTableRecord
  2
SCHRAFFUR
 70
     0
 62
     4
  6
Continuous
370
    -1
390
F
  0
LAYER
  5
79
330
2
100
AcDbSymbolTableRecord
100
AcDbLayerTableRecord
  2
TEXT
 70
     0
 62
     7
  6
Continuous
370
    -1
390
F
  0
LAYER
  5
7A
330
2
100
AcDbSymbolTableRecord
100
AcDbLayerTableRecord
  2
VERDECKT
 70
     0
 62
     3
  6
HIDDEN
370
    -3
390
F
  0
LAYER
  5
7B
330
2
100
AcDbSymbolTableRecord
100
AcDbLayerTableRecord
  2
KANTLINIE
 70
     0
 62
     3
  6
CENTERX2
370
    -3
390
F
  0
LAYER
  5
7C
330
2
100
AcDbSymbolTableRecord
100
AcDbLayerTableRecord
  2
PHANTOM
 70
     0
 62
   200
  6
CENTERX2
370
    -3
390
F
  0
ENDTAB
  0
TABLE
  2
STYLE
  5
3
330
0
100
AcDbSymbolTable
 70
     5
  0
STYLE
  5
11
330
3
100
AcDbSymbolTableRecord
100
AcDbTextStyleTableRecord
  2
Standard
 70
     0
 40
0.0
 41
1.0
 50
0.0
 71
     0
 42
35.0
  3
txt
  4

  0
STYLE
  5
128
330
3
100
AcDbSymbolTableRecord
100
AcDbTextStyleTableRecord
  2
SLDTEXTSTYLE0
 70
     0
 40
0.0
 41
0.75
 50
0.0
 71
     0
 42
35.0
  3
TXT
  4

  0
STYLE
  5
15A
330
3
100
AcDbSymbolTableRecord
100
AcDbTextStyleTableRecord
  2
SLDTEXTSTYLE1
 70
     0
 40
0.0
 41
0.6612903226
 50
0.0
 71
     0
 42
35.0
  3
TXT
  4

  0
STYLE
  5
15E
330
3
100
AcDbSymbolTableRecord
100
AcDbTextStyleTableRecord
  2
SLDTEXTSTYLE2
 70
     0
 40
0.0
 41
0.6923076923
 50
0.0
 71
     0
 42
35.0
  3
TXT
  4

  0
STYLE
  5
178
330
3
100
AcDbSymbolTableRecord
100
AcDbTextStyleTableRecord
  2
SLDTEXTSTYLE3
 70
     0
 40
0.0
 41
0.7
 50
0.0
 71
     0
 42
35.0
  3
TXT
  4

  0
ENDTAB
  0
TABLE
  2
VIEW
  5
6
330
0
100
AcDbSymbolTable
 70
     0
  0
ENDTAB
  0
TABLE
  2
UCS
  5
7
330
0
100
AcDbSymbolTable
 70
     0
  0
ENDTAB
  0
TABLE
  2
APPID
  5
9
330
0
100
AcDbSymbolTable
 70
     1
  0
APPID
  5
12
330
9
100
AcDbSymbolTableRecord
100
AcDbRegAppTableRecord
  2
ACAD
 70
     0
  0
ENDTAB
  0
TABLE
  2
DIMSTYLE
  5
A
330
0
100
AcDbSymbolTable
 70
     5
100
AcDbDimStyleTable
  0
DIMSTYLE
105
27
330
A
100
AcDbSymbolTableRecord
100
AcDbDimStyleTableRecord
  2
ISO-25
 70
     0
 41
2.5
 42
0.625
 43
3.75
 44
1.25
 73
     0
 74
     0
 77
     1
 78
     8
140
2.5
141
2.5
143
0.0393700787
147
0.625
171
     3
172
     1
178
     0
271
     2
272
     2
274
     3
278
    44
283
     0
284
     8
340
11
  0
DIMSTYLE
105
129
102
{ACAD_REACTORS
330
127
102
}
330
A
100
AcDbSymbolTableRecord
100
AcDbDimStyleTableRecord
  2
SLDDIMSTYLE0
 70
     0
 41
33.02
 44
0.0
 45
0.000000001
 73
     0
 74
     0
 77
     1
 78
    12
 79
     3
140
35.0
147
8.75
172
     1
173
     1
178
     0
271
     1
272
     1
276
     2
284
    12
289
     0
340
128
  0
DIMSTYLE
105
136
102
{ACAD_REACTORS
330
135
102
}
330
A
100
AcDbSymbolTableRecord
100
AcDbDimStyleTableRecord
  2
SLDDIMSTYLE1
 70
     0
 41
33.02
 44
0.0
 45
0.000000001
 73
     0
 74
     0
 77
     1
 78
    12
 79
     3
140
35.0
147
8.75
173
     1
178
     0
271
     1
272
     1
276
     2
284
    12
340
128
  0
DIMSTYLE
105
141
102
{ACAD_REACTORS
330
140
330
14B
102
}
330
A
100
AcDbSymbolTableRecord
100
AcDbDimStyleTableRecord
  2
SLDDIMSTYLE2
 70
     0
 41
33.02
 44
0.0
 45
0.000000001
 73
     0
 74
     0
 77
     1
 78
    12
 79
     3
140
35.0
147
8.75
173
     1
178
     0
271
     0
272
     0
276
     2
284
    12
340
128
  0
DIMSTYLE
105
161
330
A
100
AcDbSymbolTableRecord
100
AcDbDimStyleTableRecord
  2
SLDDIMSTYLE3
 70
     0
 41
33.02
 44
0.0
 45
0.000000001
146
33.02
147
0.0
173
     1
178
     0
271
     0
272
     0
276
     2
340
11
  0
ENDTAB
  0
TABLE
  2
BLOCK_RECORD
  5
1
330
0
100
AcDbSymbolTable
 70
     9
  0
BLOCK_RECORD
  5
1F
330
1
100
AcDbSymbolTableRecord
100
AcDbBlockTableRecord
  2
*Model_Space
340
22
  0
BLOCK_RECORD
  5
1B
330
1
100
AcDbSymbolTableRecord
100
AcDbBlockTableRecord
  2
*Paper_Space
340
1E
  0
BLOCK_RECORD
  5
23
330
1
100
AcDbSymbolTableRecord
100
AcDbBlockTableRecord
  2
*Paper_Space0
340
26
  0
BLOCK_RECORD
  5
12A
330
1
100
AcDbSymbolTableRecord
100
AcDbBlockTableRecord
  2
_D
340
0
  0
BLOCK_RECORD
  5
137
330
1
100
AcDbSymbolTableRecord
100
AcDbBlockTableRecord
  2
_D_1
340
0
  0
BLOCK_RECORD
  5
142
330
1
100
AcDbSymbolTableRecord
100
AcDbBlockTableRecord
  2
_D_2
340
0
  0
BLOCK_RECORD
  5
14C
330
1
100
AcDbSymbolTableRecord
100
AcDbBlockTableRecord
  2
_D_3
340
0
  0
BLOCK_RECORD
  5
155
330
1
100
AcDbSymbolTableRecord
100
AcDbBlockTableRecord
  2
SW_NOTE_0
340
0
102
{BLKREFS
331
160
102
}
  0
BLOCK_RECORD
  5
163
330
1
100
AcDbSymbolTableRecord
100
AcDbBlockTableRecord
  2
SW_NOTE_1
340
0
102
{BLKREFS
331
16A
102
}
  0
BLOCK_RECORD
  5
16C
330
1
100
AcDbSymbolTableRecord
100
AcDbBlockTableRecord
  2
SW_NOTE_2
340
0
102
{BLKREFS
331
173
102
}
  0
BLOCK_RECORD
  5
174
330
1
100
AcDbSymbolTableRecord
100
AcDbBlockTableRecord
  2
SW_NOTE_3
340
0
102
{BLKREFS
331
17B
102
}
  0
ENDTAB
  0
ENDSEC
  0
SECTION
  2
BLOCKS
  0
BLOCK
  5
20
330
1F
100
AcDbEntity
  8
0
100
AcDbBlockBegin
  2
*Model_Space
 70
     0
 10
0.0
 20
0.0
 30
0.0
  3
*Model_Space
  1

  0
ENDBLK
  5
21
330
1F
100
AcDbEntity
  8
0
100
AcDbBlockEnd
  0
BLOCK
  5
1C
330
1B
100
AcDbEntity
 67
     1
  8
0
100
AcDbBlockBegin
  2
*Paper_Space
 70
     0
 10
0.0
 20
0.0
 30
0.0
  3
*Paper_Space
  1

  0
ENDBLK
  5
1D
330
1B
100
AcDbEntity
 67
     1
  8
0
100
AcDbBlockEnd
  0
BLOCK
  5
24
330
23
100
AcDbEntity
  8
0
100
AcDbBlockBegin
  2
*Paper_Space0
 70
     0
 10
0.0
 20
0.0
 30
0.0
  3
*Paper_Space0
  1

  0
ENDBLK
  5
25
330
23
100
AcDbEntity
  8
0
100
AcDbBlockEnd
  0
BLOCK
  5
12B
330
12A
100
AcDbEntity
  8
0
100
AcDbBlockBegin
  2
_D
 70
     0
 10
0.0
 20
0.0
 30
0.0
  3
_D
  1

  0
SOLID
  5
12D
330
12A
100
AcDbEntity
  8
RAHMEN
 62
     7
100
AcDbTrace
 10
666.084719331
 20
1406.0486355726
 30
0.0
 11
699.104719331
 21
1400.9686355726
 31
0.0
 12
699.104719331
 22
1411.1286355726
 32
0.0
 13
699.104719331
 23
1411.1286355726
 33
0.0
  0
SOLID
  5
12E
330
12A
100
AcDbEntity
  8
RAHMEN
 62
     7
100
AcDbTrace
 10
566.084719331
 20
1406.0486355726
 30
0.0
 11
533.064719331
 21
1411.1286355726
 31
0.0
 12
533.064719331
 22
1400.9686355726
 32
0.0
 13
533.064719331
 23
1400.9686355726
 33
0.0
  0
LINE
  5
12F
330
12A
100
AcDbEntity
  8
RAHMEN
 62
     7
100
AcDbLine
 10
666.084719331
 20
1260.4486355726
 30
0.0
 11
666.084719331
 21
1411.0486355726
 31
0.0
  0
LINE
  5
130
330
12A
100
AcDbEntity
  8
RAHMEN
 62
     7
100
AcDbLine
 10
566.084719331
 20
1256.9365035382
 30
0.0
 11
566.084719331
 21
1411.0486355726
 31
0.0
  0
LINE
  5
131
330
12A
100
AcDbEntity
  8
RAHMEN
 62
     7
100
AcDbLine
 10
666.084719331
 20
1406.0486355726
 30
0.0
 11
729.584719331
 21
1406.0486355726
 31
0.0
  0
LINE
  5
132
330
12A
100
AcDbEntity
  8
RAHMEN
 62
     7
100
AcDbLine
 10
666.084719331
 20
1406.0486355726
 30
0.0
 11
566.084719331
 21
1406.0486355726
 31
0.0
  0
LINE
  5
133
330
12A
100
AcDbEntity
  8
RAHMEN
 62
     7
100
AcDbLine
 10
566.084719331
 20
1406.0486355726
 30
0.0
 11
502.584719331
 21
1406.0486355726
 31
0.0
  0
MTEXT
  5
134
330
12A
100
AcDbEntity
  8
RAHMEN
 62
     7
100
AcDbMText
 10
577.2930525923
 20
1451.1660047184
 30
0.0
 40
35.0
 41
0.0
 71
     1
 72
     1
  1
100
  7
SLDTEXTSTYLE0
 73
     1
 44
1.0
  0
ENDBLK
  5
12C
330
12A
100
AcDbEntity
  8
0
100
AcDbBlockEnd
  0
BLOCK
  5
138
330
137
100
AcDbEntity
  8
0
100
AcDbBlockBegin
  2
_D_1
 70
     0
 10
0.0
 20
0.0
 30
0.0
  3
_D_1
  1

  0
SOLID
  5
13A
330
137
100
AcDbEntity
  8
RAHMEN
 62
     7
100
AcDbTrace
 10
1050.084719331
 20
1406.0486355726
 30
0.0
 11
1083.104719331
 21
1400.9686355726
 31
0.0
 12
1083.104719331
 22
1411.1286355726
 32
0.0
 13
1083.104719331
 23
1411.1286355726
 33
0.0
  0
SOLID
  5
13B
330
137
100
AcDbEntity
  8
RAHMEN
 62
     7
100
AcDbTrace
 10
1356.084719331
 20
1406.0486355726
 30
0.0
 11
1323.064719331
 21
1411.1286355726
 31
0.0
 12
1323.064719331
 22
1400.9686355726
 32
0.0
 13
1323.064719331
 23
1400.9686355726
 33
0.0
  0
LINE
  5
13C
330
137
100
AcDbEntity
  8
RAHMEN
 62
     7
100
AcDbLine
 10
1050.084719331
 20
865.2986355726
 30
0.0
 11
1050.084719331
 21
1411.0486355726
 31
0.0
  0
LINE
  5
13D
330
137
100
AcDbEntity
  8
RAHMEN
 62
     7
100
AcDbLine
 10
1356.084719331
 20
1256.9365035382
 30
0.0
 11
1356.084719331
 21
1411.0486355726
 31
0.0
  0
LINE
  5
13E
330
137
100
AcDbEntity
  8
RAHMEN
 62
     7
100
AcDbLine
 10
1050.084719331
 20
1406.0486355726
 30
0.0
 11
1356.084719331
 21
1406.0486355726
 31
0.0
  0
MTEXT
  5
13F
330
137
100
AcDbEntity
  8
RAHMEN
 62
     7
100
AcDbMText
 10
1164.2930525923
 20
1451.1660047184
 30
0.0
 40
35.0
 41
0.0
 71
     1
 72
     1
  1
306
  7
SLDTEXTSTYLE0
 73
     1
 44
1.0
  0
ENDBLK
  5
139
330
137
100
AcDbEntity
  8
0
100
AcDbBlockEnd
  0
BLOCK
  5
143
330
142
100
AcDbEntity
  8
0
100
AcDbBlockBegin
  2
_D_2
 70
     0
 10
0.0
 20
0.0
 30
0.0
  3
_D_2
  1

  0
SOLID
  5
145
330
142
100
AcDbEntity
  8
RAHMEN
 62
     7
100
AcDbTrace
 10
1456.087244331
 20
865.2986355726
 30
0.0
 11
1461.167244331
 21
898.3186355726
 31
0.0
 12
1451.007244331
 22
898.3186355726
 32
0.0
 13
1451.007244331
 23
898.3186355726
 33
0.0
  0
SOLID
  5
146
330
142
100
AcDbEntity
  8
RAHMEN
 62
     7
100
AcDbTrace
 10
1456.087244331
 20
1306.0486355726
 30
0.0
 11
1451.007244331
 21
1273.0286355726
 31
0.0
 12
1461.167244331
 22
1273.0286355726
 32
0.0
 13
1461.167244331
 23
1273.0286355726
 33
0.0
  0
LINE
  5
147
330
142
100
AcDbEntity
  8
RAHMEN
 62
     7
100
AcDbLine
 10
1050.084719331
 20
865.2986355726
 30
0.0
 11
1461.087244331
 21
865.2986355726
 31
0.0
  0
LINE
  5
148
330
142
100
AcDbEntity
  8
RAHMEN
 62
     7
100
AcDbLine
 10
1271.084719331
 20
1306.0486355726
 30
0.0
 11
1461.087244331
 21
1306.0486355726
 31
0.0
  0
LINE
  5
149
330
142
100
AcDbEntity
  8
RAHMEN
 62
     7
100
AcDbLine
 10
1456.087244331
 20
865.2986355726
 30
0.0
 11
1456.087244331
 21
1306.0486355726
 31
0.0
  0
MTEXT
  5
14A
330
142
100
AcDbEntity
  8
RAHMEN
 62
     7
100
AcDbMText
 10
1410.9698751852
 20
1046.8819688339
 30
0.0
 40
35.0
 41
0.0
 71
     1
 72
     1
  1
441
  7
SLDTEXTSTYLE0
 11
6.123233995736766E-17
 21
1.0
 31
0.0
 73
     1
 44
1.0
  0
ENDBLK
  5
144
330
142
100
AcDbEntity
  8
0
100
AcDbBlockEnd
  0
BLOCK
  5
14D
330
14C
100
AcDbEntity
  8
0
100
AcDbBlockBegin
  2
_D_3
 70
     0
 10
0.0
 20
0.0
 30
0.0
  3
_D_3
  1

  0
SOLID
  5
14F
330
14C
100
AcDbEntity
  8
RAHMEN
 62
     7
100
AcDbTrace
 10
970.934719331
 20
1476.0486355726
 30
0.0
 11
1003.954719331
 21
1470.9686355726
 31
0.0
 12
1003.954719331
 22
1481.1286355726
 32
0.0
 13
1003.954719331
 23
1481.1286355726
 33
0.0
  0
SOLID
  5
150
330
14C
100
AcDbEntity
  8
RAHMEN
 62
     7
100
AcDbTrace
 10
1356.084719331
 20
1476.0486355726
 30
0.0
 11
1323.064719331
 21
1481.1286355726
 31
0.0
 12
1323.064719331
 22
1470.9686355726
 32
0.0
 13
1323.064719331
 23
1470.9686355726
 33
0.0
  0
LINE
  5
151
330
14C
100
AcDbEntity
  8
RAHMEN
 62
     7
100
AcDbLine
 10
970.934719331
 20
1261.9486355726
 30
0.0
 11
970.934719331
 21
1481.0486355726
 31
0.0
  0
LINE
  5
152
330
14C
100
AcDbEntity
  8
RAHMEN
 62
     7
100
AcDbLine
 10
1356.084719331
 20
1256.9365035382
 30
0.0
 11
1356.084719331
 21
1481.0486355726
 31
0.0
  0
LINE
  5
153
330
14C
100
AcDbEntity
  8
RAHMEN
 62
     7
100
AcDbLine
 10
970.934719331
 20
1476.0486355726
 30
0.0
 11
1356.084719331
 21
1476.0486355726
 31
0.0
  0
MTEXT
  5
154
330
14C
100
AcDbEntity
  8
RAHMEN
 62
     7
100
AcDbMText
 10
1124.7180525923
 20
1521.1660047184
 30
0.0
 40
35.0
 41
0.0
 71
     1
 72
     1
  1
385
  7
SLDTEXTSTYLE0
 73
     1
 44
1.0
  0
ENDBLK
  5
14E
330
14C
100
AcDbEntity
  8
0
100
AcDbBlockEnd
  0
BLOCK
  5
156
330
155
100
AcDbEntity
  8
0
100
AcDbBlockBegin
  2
SW_NOTE_0
 70
     0
 10
0.0
 20
0.0
 30
0.0
  3
SW_NOTE_0
  1

  0
LINE
  5
158
330
155
100
AcDbEntity
  8
RAHMEN
 62
     0
100
AcDbLine
 10
725.9698601533
 20
0.0
 30
0.0
 11
0.0
 21
0.0
 31
0.0
  0
MTEXT
  5
159
330
155
100
AcDbEntity
  8
RAHMEN
 62
     0
100
AcDbMText
 10
4.3044559004
 20
226.5806874663
 30
0.0
 40
35.0
 41
0.0
 71
     1
 72
     1
  1
EZ:
  7
SLDTEXTSTYLE0
 73
     1
 44
1.0
  0
MTEXT
  5
15B
330
155
100
AcDbEntity
  8
RAHMEN
 62
     0
100
AcDbMText
 10
4.3044559004
 20
181.3237421617
 30
0.0
 40
35.0
 41
0.0
 71
     1
 72
     1
  1
- 230 V / 50 Hz / 2,9 kW / 16 A
  7
SLDTEXTSTYLE1
 73
     1
 44
1.0
  0
MTEXT
  5
15C
330
155
100
AcDbEntity
  8
RAHMEN
 62
     0
100
AcDbMText
 10
4.3044559004
 20
136.0667968571
 30
0.0
 40
35.0
 41
0.0
 71
     1
 72
     1
  1
- Absicherung 16 A träge
  7
SLDTEXTSTYLE0
 73
     1
 44
1.0
  0
MTEXT
  5
15D
330
155
100
AcDbEntity
  8
RAHMEN
 62
     0
100
AcDbMText
 10
4.3044559004
 20
90.8098515525
 30
0.0
 40
35.0
 41
0.0
 71
     1
 72
     1
  1
- Kabellänge 2 m mit CE-Stecker
  7
SLDTEXTSTYLE0
 73
     1
 44
1.0
  0
MTEXT
  5
15F
330
155
100
AcDbEntity
  8
RAHMEN
 62
     0
100
AcDbMText
 10
4.3044559004
 20
45.552906248
 30
0.0
 40
35.0
 41
0.0
 71
     1
 72
     1
  1
- 150 mm OKFF
  7
SLDTEXTSTYLE2
 73
     1
 44
1.0
  0
ENDBLK
  5
157
330
155
100
AcDbEntity
  8
0
100
AcDbBlockEnd
  0
BLOCK
  5
164
330
163
100
AcDbEntity
  8
0
100
AcDbBlockBegin
  2
SW_NOTE_1
 70
     0
 10
0.0
 20
0.0
 30
0.0
  3
SW_NOTE_1
  1

  0
LINE
  5
166
330
163
100
AcDbEntity
  8
RAHMEN
 62
     0
100
AcDbLine
 10
1077.8171213437
 20
0.0
 30
0.0
 11
0.0
 21
0.0
 31
0.0
  0
MTEXT
  5
167
330
163
100
AcDbEntity
  8
RAHMEN
 62
     0
100
AcDbMText
 10
4.9709614283
 20
134.9123062633
 30
0.0
 40
35.0
 41
0.0
 71
     1
 72
     1
  1
A:
  7
SLDTEXTSTYLE0
 73
     1
 44
1.0
  0
MTEXT
  5
168
330
163
100
AcDbEntity
  8
RAHMEN
 62
     0
100
AcDbMText
 10
4.9709614283
 20
89.6553609587
 30
0.0
 40
35.0
 41
0.0
 71
     1
 72
     1
  1
DN20 Tauwasserablauf mit Schale 145 mm OKFF
  7
SLDTEXTSTYLE0
 73
     1
 44
1.0
  0
MTEXT
  5
169
330
163
100
AcDbEntity
  8
RAHMEN
 62
     0
100
AcDbMText
 10
4.9709614283
 20
44.3984156542
 30
0.0
 40
35.0
 41
0.0
 71
     1
 72
     1
  1
(Schale bei bauseitigem Ablauf entfernen)
  7
SLDTEXTSTYLE0
 73
     1
 44
1.0
  0
ENDBLK
  5
165
330
163
100
AcDbEntity
  8
0
100
AcDbBlockEnd
  0
BLOCK
  5
16D
330
16C
100
AcDbEntity
  8
0
100
AcDbBlockBegin
  2
SW_NOTE_2
 70
     0
 10
0.0
 20
0.0
 30
0.0
  3
SW_NOTE_2
  1

  0
MTEXT
  5
16F
330
16C
100
AcDbEntity
  8
RAHMEN
 62
     0
100
AcDbMText
 10
327.578125
 20
45.117370892
 30
0.0
 40
35.0
 41
0.0
 71
     2
 72
     1
  1
SKFMEQ1311D / SKFZKQ1311D
  7
SLDTEXTSTYLE0
 73
     1
 44
1.0
  0
MTEXT
  5
170
330
16C
100
AcDbEntity
  8
RAHMEN
 62
     0
100
AcDbMText
 10
326.0711967945
 20
-0.1395744126
 30
0.0
 40
35.0
 41
0.0
 71
     2
 72
     1
  1
SKFMEQ1311D-VP / SKFZKQ1311D-VP
  7
SLDTEXTSTYLE0
 73
     1
 44
1.0
  0
MTEXT
  5
171
330
16C
100
AcDbEntity
  8
RAHMEN
 62
     0
100
AcDbMText
 10
324.7829917073
 20
-45.3965197171
 30
0.0
 40
35.0
 41
0.0
 71
     2
 72
     1
  1
ASKFMEQ1311D / ASKFZKQ1311D
  7
SLDTEXTSTYLE0
 73
     1
 44
1.0
  0
MTEXT
  5
172
330
16C
100
AcDbEntity
  8
RAHMEN
 62
     0
100
AcDbMText
 10
323.2760262489
 20
-90.6534650217
 30
0.0
 40
35.0
 41
0.0
 71
     2
 72
     1
  1
ASKFMEQ1311D-VP / ASKFZKQ1311D-VP
  7
SLDTEXTSTYLE0
 73
     1
 44
1.0
  0
ENDBLK
  5
16E
330
16C
100
AcDbEntity
  8
0
100
AcDbBlockEnd
  0
BLOCK
  5
175
330
174
100
AcDbEntity
  8
0
100
AcDbBlockBegin
  2
SW_NOTE_3
 70
     0
 10
0.0
 20
0.0
 30
0.0
  3
SW_NOTE_3
  1

  0
LINE
  5
177
330
174
100
AcDbEntity
  8
RAHMEN
 62
     0
100
AcDbLine
 10
997.1712919045
 20
0.0
 30
0.0
 11
0.0
 21
0.0
 31
0.0
  0
MTEXT
  5
179
330
174
100
AcDbEntity
  8
RAHMEN
 62
     0
100
AcDbMText
 10
4.3044559003
 20
91.0329005718
 30
0.0
 40
35.0
 41
0.0
 71
     1
 72
     1
  1
KL: Saugleitung Ø 18 mm 400 mm OKFF
  7
SLDTEXTSTYLE3
 73
     1
 44
1.0
  0
MTEXT
  5
17A
330
174
100
AcDbEntity
  8
RAHMEN
 62
     0
100
AcDbMText
 10
4.3044559003
 20
45.7759552672
 30
0.0
 40
35.0
 41
0.0
 71
     1
 72
     1
  1
KL: Flüssigkeitsleitung Ø 12 mm 400 mm OKFF
  7
SLDTEXTSTYLE0
 73
     1
 44
1.0
  0
ENDBLK
  5
176
330
174
100
AcDbEntity
  8
0
100
AcDbBlockEnd
  0
ENDSEC
  0
SECTION
  2
ENTITIES
  0
ARC
  5
7D
330
1F
100
AcDbEntity
  8
KONTUR
100
AcDbCircle
 10
666.134719331
 20
1297.7986355726
 30
0.0
 40
4.950000000000045
100
AcDbArc
 50
0.0
 51
90.0
  0
ARC
  5
7E
330
1F
100
AcDbEntity
  8
KONTUR
100
AcDbCircle
 10
636.034719331
 20
1297.7986355726
 30
0.0
 40
4.950000000000045
100
AcDbArc
 50
90.0
 51
180.0
  0
LINE
  5
7F
330
1F
100
AcDbEntity
  8
KONTUR
100
AcDbLine
 10
666.134719331
 20
1302.7486355726
 30
0.0
 11
636.034719331
 21
1302.7486355726
 31
0.0
  0
LINE
  5
80
330
1F
100
AcDbEntity
  8
KONTUR
100
AcDbLine
 10
671.084719331
 20
1257.9486355726
 30
0.0
 11
671.084719331
 21
1297.7986355726
 31
0.0
  0
LINE
  5
81
330
1F
100
AcDbEntity
  8
KONTUR
100
AcDbLine
 10
631.084719331
 20
1297.7986355726
 30
0.0
 11
631.084719331
 21
1257.9486355726
 31
0.0
  0
ARC
  5
82
330
1F
100
AcDbEntity
  8
KONTUR
100
AcDbCircle
 10
1286.134719331
 20
1297.7986355725
 30
0.0
 40
4.950000000000273
100
AcDbArc
 50
0.0
 51
90.0
  0
ARC
  5
83
330
1F
100
AcDbEntity
  8
KONTUR
100
AcDbCircle
 10
1256.034719331
 20
1297.7986355725
 30
0.0
 40
4.950000000000045
100
AcDbArc
 50
90.0
 51
180.0
  0
LINE
  5
84
330
1F
100
AcDbEntity
  8
KONTUR
100
AcDbLine
 10
1286.134719331
 20
1302.7486355725
 30
0.0
 11
1256.034719331
 21
1302.7486355725
 31
0.0
  0
LINE
  5
85
330
1F
100
AcDbEntity
  8
KONTUR
100
AcDbLine
 10
1291.084719331
 20
1257.9486355726
 30
0.0
 11
1291.084719331
 21
1297.7986355725
 31
0.0
  0
LINE
  5
86
330
1F
100
AcDbEntity
  8
KONTUR
100
AcDbLine
 10
1251.084719331
 20
1297.7986355725
 30
0.0
 11
1251.084719331
 21
1257.9486355726
 31
0.0
  0
ARC
  5
87
330
1F
100
AcDbEntity
  8
KONTUR
100
AcDbCircle
 10
1285.134719331
 20
1303.8887778854
 30
0.0
 40
0.8000000000001869
100
AcDbArc
 50
0.0
 51
78.9434630789
  0
ARC
  5
88
330
1F
100
AcDbEntity
  8
KONTUR
100
AcDbCircle
 10
1257.034719331
 20
1303.8887778854
 30
0.0
 40
0.8000000000001869
100
AcDbArc
 50
101.0565369211
 51
180.0
  0
ARC
  5
89
330
1F
100
AcDbEntity
  8
KONTUR
100
AcDbCircle
 10
1257.034719331
 20
1303.461011399
 30
0.0
 40
0.8000000000001819
100
AcDbArc
 50
180.0
 51
242.9323390866
  0
ARC
  5
8A
330
1F
100
AcDbEntity
  8
KONTUR
100
AcDbCircle
 10
1285.134719331
 20
1303.461011399
 30
0.0
 40
0.8000000000001819
100
AcDbArc
 50
297.0676609135
 51
0.0
  0
LINE
  5
8B
330
1F
100
AcDbEntity
  8
KONTUR
100
AcDbLine
 10
1285.934719331
 20
1303.461011399
 30
0.0
 11
1285.934719331
 21
1303.8887778854
 31
0.0
  0
LINE
  5
8C
330
1F
100
AcDbEntity
  8
KONTUR
100
AcDbLine
 10
1256.234719331
 20
1303.8887778854
 30
0.0
 11
1256.234719331
 21
1303.461011399
 31
0.0
  0
ARC
  5
8D
330
1F
100
AcDbEntity
  8
KONTUR
100
AcDbCircle
 10
1271.084719331
 20
1231.9866630848
 30
0.0
 40
74.06197248769939
100
AcDbArc
 50
78.9434630789
 51
101.0565369211
  0
LINE
  5
8E
330
1F
100
AcDbEntity
  8
KONTUR
100
AcDbLine
 10
665.934719331
 20
1303.461011399
 30
0.0
 11
665.934719331
 21
1303.8887778854
 31
0.0
  0
LINE
  5
8F
330
1F
100
AcDbEntity
  8
KONTUR
100
AcDbLine
 10
636.234719331
 20
1303.8887778854
 30
0.0
 11
636.234719331
 21
1303.461011399
 31
0.0
  0
ARC
  5
90
330
1F
100
AcDbEntity
  8
KONTUR
100
AcDbCircle
 10
637.034719331
 20
1303.461011399
 30
0.0
 40
0.8000000000000304
100
AcDbArc
 50
180.0
 51
242.9323390866
  0
ARC
  5
91
330
1F
100
AcDbEntity
  8
KONTUR
100
AcDbCircle
 10
665.134719331
 20
1303.461011399
 30
0.0
 40
0.8000000000000304
100
AcDbArc
 50
297.0676609134
 51
0.0
  0
ARC
  5
92
330
1F
100
AcDbEntity
  8
KONTUR
100
AcDbCircle
 10
665.134719331
 20
1303.8887778854
 30
0.0
 40
0.7999999999999545
100
AcDbArc
 50
0.0
 51
78.9434630789
  0
ARC
  5
93
330
1F
100
AcDbEntity
  8
KONTUR
100
AcDbCircle
 10
637.034719331
 20
1303.8887778854
 30
0.0
 40
0.7999999999999545
100
AcDbArc
 50
101.0565369211
 51
180.0
  0
ARC
  5
94
330
1F
100
AcDbEntity
  8
KONTUR
100
AcDbCircle
 10
651.084719331
 20
1231.9866630849
 30
0.0
 40
74.06197248769931
100
AcDbArc
 50
78.9434630789
 51
101.0565369211
  0
LINE
  5
95
330
1F
100
AcDbEntity
  8
KONTUR
100
AcDbLine
 10
1217.584719331
 20
407.4486355726
 30
0.0
 11
1217.584719331
 21
350.1912762597
 31
0.0
  0
LINE
  5
96
330
1F
100
AcDbEntity
  8
KONTUR
100
AcDbLine
 10
1242.584719331
 20
350.1912762597
 30
0.0
 11
1242.584719331
 21
407.4486355726
 31
0.0
  0
LINE
  5
97
330
1F
100
AcDbEntity
  8
KONTUR
100
AcDbLine
 10
604.584719331
 20
1260.4486355726
 30
0.0
 11
600.584719331
 21
1260.4486355726
 31
0.0
  0
LINE
  5
98
330
1F
100
AcDbEntity
  8
KONTUR
100
AcDbLine
 10
1321.584719331
 20
1260.4486355726
 30
0.0
 11
1317.584719331
 21
1260.4486355726
 31
0.0
  0
LINE
  5
99
330
1F
100
AcDbEntity
  8
KONTUR
100
AcDbLine
 10
1317.584719331
 20
1260.4486355726
 30
0.0
 11
1291.084719331
 21
1260.4486355726
 31
0.0
  0
LINE
  5
9A
330
1F
100
AcDbEntity
  8
KONTUR
100
AcDbLine
 10
1251.084719331
 20
1260.4486355726
 30
0.0
 11
671.084719331
 21
1260.4486355726
 31
0.0
  0
LINE
  5
9B
330
1F
100
AcDbEntity
  8
KONTUR
100
AcDbLine
 10
631.084719331
 20
1260.4486355726
 30
0.0
 11
604.584719331
 21
1260.4486355726
 31
0.0
  0
LINE
  5
9C
330
1F
100
AcDbEntity
  8
KONTUR
100
AcDbLine
 10
610.4809508424
 20
1260.5547715473
 30
0.0
 11
610.1729749092
 21
1260.4486355726
 31
0.0
  0
LWPOLYLINE
  5
9D
330
1F
100
AcDbEntity
  8
KONTUR
100
AcDbPolyline
 90
        3
 70
   128
 43
0.0
 10
1306.2604203703
 20
1260.7747670924
 10
1305.9383141032
 20
1260.6921069066
 10
1305.4794149291
 20
1260.5542699318
  0
ARC
  5
9E
330
1F
100
AcDbEntity
  8
KONTUR
100
AcDbCircle
 10
1308.584719331
 20
1251.0486355726
 30
0.0
 40
10.0000000000002
100
AcDbArc
 50
70.0515564106
 51
81.2897189095
  0
LINE
  5
9F
330
1F
100
AcDbEntity
  8
KONTUR
100
AcDbLine
 10
1302.4809508424
 20
1260.5547715473
 30
0.0
 11
1302.1729749091
 21
1260.4486355726
 31
0.0
  0
LINE
  5
A0
330
1F
100
AcDbEntity
  8
KONTUR
100
AcDbLine
 10
1308.9964637529
 20
1260.4486355726
 30
0.0
 11
1308.6884878196
 21
1260.5547715473
 31
0.0
  0
LINE
  5
A1
330
1F
100
AcDbEntity
  8
KONTUR
100
AcDbLine
 10
613.4809508424
 20
1260.5547715473
 30
0.0
 11
613.1729749091
 21
1260.4486355726
 31
0.0
  0
LINE
  5
A2
330
1F
100
AcDbEntity
  8
KONTUR
100
AcDbLine
 10
619.9964637529
 20
1260.4486355726
 30
0.0
 11
619.6884878196
 21
1260.5547715473
 31
0.0
  0
LINE
  5
A3
330
1F
100
AcDbEntity
  8
KONTUR
100
AcDbLine
 10
1355.3532005515
 20
428.3326976159
 30
0.0
 11
1335.2006572877
 21
408.1801543521
 31
0.0
  0
LINE
  5
A4
330
1F
100
AcDbEntity
  8
KONTUR
100
AcDbLine
 10
1355.9188859764
 20
427.767012191
 30
0.0
 11
1355.3532005515
 21
428.3326976159
 31
0.0
  0
LINE
  5
A5
330
1F
100
AcDbEntity
  8
KONTUR
100
AcDbLine
 10
1355.9188859764
 20
427.767012191
 30
0.0
 11
1335.7663427126
 21
407.6144689271
 31
0.0
  0
LINE
  5
A6
330
1F
100
AcDbEntity
  8
KONTUR
100
AcDbLine
 10
1335.7663427126
 20
407.6144689271
 30
0.0
 11
1335.2006572877
 21
408.1801543521
 31
0.0
  0
ARC
  5
A7
330
1F
100
AcDbEntity
  8
KONTUR
100
AcDbCircle
 10
1334.4202499677
 20
408.7732223864
 30
0.0
 40
0.980186348835369
100
AcDbArc
 50
322.7670987228
 51
10.3037713038
  0
ARC
  5
A8
330
1F
100
AcDbEntity
  8
KONTUR
100
AcDbCircle
 10
1354.7511639431
 20
429.1364743658
 30
0.0
 40
1.004243566750652
100
AcDbArc
 50
260.3352123483
 51
306.8335679648
  0
LINE
  5
A9
330
1F
100
AcDbEntity
  8
KONTUR
100
AcDbLine
 10
566.2505526856
 20
427.767012191
 30
0.0
 11
566.8162381106
 21
428.3326976159
 31
0.0
  0
LINE
  5
AA
330
1F
100
AcDbEntity
  8
KONTUR
100
AcDbLine
 10
586.4030959494
 20
407.6144689271
 30
0.0
 11
586.9687813744
 21
408.1801543521
 31
0.0
  0
LINE
  5
AB
330
1F
100
AcDbEntity
  8
KONTUR
100
AcDbLine
 10
586.9687813744
 20
408.1801543521
 30
0.0
 11
566.8162381106
 21
428.3326976159
 31
0.0
  0
LINE
  5
AC
330
1F
100
AcDbEntity
  8
KONTUR
100
AcDbLine
 10
586.4030959494
 20
407.6144689271
 30
0.0
 11
566.2505526856
 21
427.767012191
 31
0.0
  0
ARC
  5
AD
330
1F
100
AcDbEntity
  8
KONTUR
100
AcDbCircle
 10
567.4093061449
 20
429.1131049359
 30
0.0
 40
0.9801863488368031
100
AcDbArc
 50
232.7670987228
 51
280.3037713038
  0
ARC
  5
AE
330
1F
100
AcDbEntity
  8
KONTUR
100
AcDbCircle
 10
587.7725581242
 20
408.7821909604
 30
0.0
 40
1.004243566750073
100
AcDbArc
 50
170.3352123483
 51
216.8335679648
  0
ARC
  5
AF
330
1F
100
AcDbEntity
  8
KONTUR
100
AcDbCircle
 10
1354.8296073549
 20
1261.0270741815
 30
0.0
 40
4.278793551935075
100
AcDbArc
 50
270.7380049798
 51
287.0576124271
  0
LINE
  5
B0
330
1F
100
AcDbEntity
  8
KONTUR
100
AcDbLine
 10
1356.084719331
 20
428.4486355726
 30
0.0
 11
1356.084719331
 21
1256.9365035382
 31
0.0
  0
LINE
  5
B1
330
1F
100
AcDbEntity
  8
KONTUR
100
AcDbLine
 10
1356.084719331
 20
428.4486355726
 30
0.0
 11
1354.884719331
 21
428.4486355726
 31
0.0
  0
ARC
  5
B2
330
1F
100
AcDbEntity
  8
KONTUR
100
AcDbCircle
 10
1354.8180009041
 20
1257.4104544016
 30
0.0
 40
0.6651732939057496
100
AcDbArc
 50
275.7565798704
 51
314.5594839523
  0
LINE
  5
B3
330
1F
100
AcDbEntity
  8
KONTUR
100
AcDbLine
 10
1356.084719331
 20
1256.9365035382
 30
0.0
 11
1355.284719331
 21
1256.9365035382
 31
0.0
  0
ARC
  5
B4
330
1F
100
AcDbEntity
  8
KONTUR
100
AcDbCircle
 10
1359.16315794
 20
1256.6935235964
 30
0.0
 40
4.278793551971972
100
AcDbArc
 50
162.942387573
 51
179.2619950202
  0
LINE
  5
B5
330
1F
100
AcDbEntity
  8
KONTUR
100
AcDbLine
 10
1355.0725872967
 20
1257.9486355726
 30
0.0
 11
1355.0725872967
 21
1257.1486355726
 31
0.0
  0
ARC
  5
B6
330
1F
100
AcDbEntity
  8
KONTUR
100
AcDbCircle
 10
1355.54653816
 20
1256.6819171456
 30
0.0
 40
0.66517329390931
100
AcDbArc
 50
135.4405160479
 51
174.2434201295
  0
ARC
  5
B7
330
1F
100
AcDbEntity
  8
KONTUR
100
AcDbCircle
 10
567.3398313071
 20
1261.0270741815
 30
0.0
 40
4.278793551966942
100
AcDbArc
 50
252.942387573
 51
269.2619950202
  0
LINE
  5
B8
330
1F
100
AcDbEntity
  8
KONTUR
100
AcDbLine
 10
566.084719331
 20
1256.9365035382
 30
0.0
 11
566.884719331
 21
1256.9365035382
 31
0.0
  0
ARC
  5
B9
330
1F
100
AcDbEntity
  8
KONTUR
100
AcDbCircle
 10
567.351437758
 20
1257.4104544016
 30
0.0
 40
0.6651732939081104
100
AcDbArc
 50
225.4405160479
 51
264.2434201295
  0
ARC
  5
BA
330
1F
100
AcDbEntity
  8
KONTUR
100
AcDbCircle
 10
563.0062807221
 20
1256.6935235964
 30
0.0
 40
4.278793551953266
100
AcDbArc
 50
0.7380049798
 51
17.057612427
  0
LINE
  5
BB
330
1F
100
AcDbEntity
  8
KONTUR
100
AcDbLine
 10
1355.0725872967
 20
1257.9486355726
 30
0.0
 11
567.0968513654
 21
1257.9486355726
 31
0.0
  0
LINE
  5
BC
330
1F
100
AcDbEntity
  8
KONTUR
100
AcDbLine
 10
587.084719331
 20
408.6486355726
 30
0.0
 11
567.284719331
 21
428.4486355726
 31
0.0
  0
LINE
  5
BD
330
1F
100
AcDbEntity
  8
KONTUR
100
AcDbLine
 10
1335.084719331
 20
408.6486355726
 30
0.0
 11
1354.884719331
 21
428.4486355726
 31
0.0
  0
LINE
  5
BE
330
1F
100
AcDbEntity
  8
KONTUR
100
AcDbLine
 10
567.284719331
 20
428.4486355726
 30
0.0
 11
566.084719331
 21
428.4486355726
 31
0.0
  0
LINE
  5
BF
330
1F
100
AcDbEntity
  8
KONTUR
100
AcDbLine
 10
566.084719331
 20
1256.9365035382
 30
0.0
 11
566.084719331
 21
428.4486355726
 31
0.0
  0
ARC
  5
C0
330
1F
100
AcDbEntity
  8
KONTUR
100
AcDbCircle
 10
566.622900502
 20
1256.6819171456
 30
0.0
 40
0.6651732939063453
100
AcDbArc
 50
5.7565798704
 51
44.5594839522
  0
LINE
  5
C1
330
1F
100
AcDbEntity
  8
KONTUR
100
AcDbLine
 10
567.0968513654
 20
1257.9486355726
 30
0.0
 11
567.0968513654
 21
1257.1486355726
 31
0.0
  0
LINE
  5
C2
330
1F
100
AcDbEntity
  8
KONTUR
100
AcDbLine
 10
587.084719331
 20
407.4486355726
 30
0.0
 11
1335.084719331
 21
407.4486355726
 31
0.0
  0
LINE
  5
C3
330
1F
100
AcDbEntity
  8
KONTUR
100
AcDbLine
 10
587.084719331
 20
407.4486355726
 30
0.0
 11
587.084719331
 21
408.6486355726
 31
0.0
  0
LINE
  5
C4
330
1F
100
AcDbEntity
  8
KONTUR
100
AcDbLine
 10
1335.084719331
 20
408.6486355726
 30
0.0
 11
1335.084719331
 21
407.4486355726
 31
0.0
  0
CIRCLE
  5
C5
330
1F
100
AcDbEntity
  8
KONTUR
100
AcDbCircle
 10
1230.084719331
 20
348.9486355725
 30
0.0
 40
12.49999999999994
  0
LWPOLYLINE
  5
C6
330
1F
100
AcDbEntity
  8
KONTUR
100
AcDbPolyline
 90
        4
 70
   128
 43
0.0
 10
1242.4034043258
 20
351.0699559161
 10
1242.516624068
 20
350.4890076962
 10
1242.5802641206
 20
350.2098940991
 10
1242.5759470583
 20
350.2281443346
  0
ARC
  5
C7
330
1F
100
AcDbEntity
  8
KONTUR
100
AcDbCircle
 10
1204.2595434428
 20
353.3997385203
 30
0.0
 40
13.70595429869129
100
AcDbArc
 50
346.6203341436
 51
350.2131550419
  0
ARC
  5
C8
330
1F
100
AcDbEntity
  8
KONTUR
100
AcDbCircle
 10
600.584719331
 20
1258.4486355726
 30
0.0
 40
2.000000000000041
100
AcDbArc
 50
90.0
 51
194.4775121865
  0
ARC
  5
C9
330
1F
100
AcDbEntity
  8
KONTUR
100
AcDbCircle
 10
1321.584719331
 20
1258.4486355726
 30
0.0
 40
2.000000000000371
100
AcDbArc
 50
345.5224878135
 51
90.0
  0
CIRCLE
  5
CA
330
1F
100
AcDbEntity
  8
KONTUR
100
AcDbCircle
 10
961.084719331
 20
1261.9486355726
 30
0.0
 40
1.5
  0
CIRCLE
  5
CB
330
1F
100
AcDbEntity
  8
KONTUR
100
AcDbCircle
 10
941.384719331
 20
1261.9486355726
 30
0.0
 40
1.5
  0
CIRCLE
  5
CC
330
1F
100
AcDbEntity
  8
KONTUR
100
AcDbCircle
 10
921.684719331
 20
1261.9486355726
 30
0.0
 40
1.5
  0
CIRCLE
  5
CD
330
1F
100
AcDbEntity
  8
KONTUR
100
AcDbCircle
 10
901.984719331
 20
1261.9486355726
 30
0.0
 40
1.5
  0
CIRCLE
  5
CE
330
1F
100
AcDbEntity
  8
KONTUR
100
AcDbCircle
 10
882.284719331
 20
1261.9486355726
 30
0.0
 40
1.5
  0
CIRCLE
  5
CF
330
1F
100
AcDbEntity
  8
KONTUR
100
AcDbCircle
 10
862.584719331
 20
1261.9486355726
 30
0.0
 40
1.5
  0
CIRCLE
  5
D0
330
1F
100
AcDbEntity
  8
KONTUR
100
AcDbCircle
 10
842.884719331
 20
1261.9486355726
 30
0.0
 40
1.5
  0
CIRCLE
  5
D1
330
1F
100
AcDbEntity
  8
KONTUR
100
AcDbCircle
 10
823.184719331
 20
1261.9486355726
 30
0.0
 40
1.5
  0
CIRCLE
  5
D2
330
1F
100
AcDbEntity
  8
KONTUR
100
AcDbCircle
 10
803.484719331
 20
1261.9486355726
 30
0.0
 40
1.5
  0
CIRCLE
  5
D3
330
1F
100
AcDbEntity
  8
KONTUR
100
AcDbCircle
 10
783.784719331
 20
1261.9486355726
 30
0.0
 40
1.5
  0
CIRCLE
  5
D4
330
1F
100
AcDbEntity
  8
KONTUR
100
AcDbCircle
 10
764.084719331
 20
1261.9486355726
 30
0.0
 40
1.5
  0
CIRCLE
  5
D5
330
1F
100
AcDbEntity
  8
KONTUR
100
AcDbCircle
 10
744.384719331
 20
1261.9486355726
 30
0.0
 40
1.5
  0
CIRCLE
  5
D6
330
1F
100
AcDbEntity
  8
KONTUR
100
AcDbCircle
 10
724.684719331
 20
1261.9486355726
 30
0.0
 40
1.5
  0
CIRCLE
  5
D7
330
1F
100
AcDbEntity
  8
KONTUR
100
AcDbCircle
 10
704.984719331
 20
1261.9486355726
 30
0.0
 40
1.5
  0
CIRCLE
  5
D8
330
1F
100
AcDbEntity
  8
KONTUR
100
AcDbCircle
 10
685.284719331
 20
1261.9486355726
 30
0.0
 40
1.5
  0
CIRCLE
  5
D9
330
1F
100
AcDbEntity
  8
KONTUR
100
AcDbCircle
 10
626.184719331
 20
1261.9486355726
 30
0.0
 40
1.5
  0
CIRCLE
  5
DA
330
1F
100
AcDbEntity
  8
KONTUR
100
AcDbCircle
 10
980.784719331
 20
1261.9486355726
 30
0.0
 40
1.5
  0
CIRCLE
  5
DB
330
1F
100
AcDbEntity
  8
KONTUR
100
AcDbCircle
 10
1000.484719331
 20
1261.9486355726
 30
0.0
 40
1.5
  0
CIRCLE
  5
DC
330
1F
100
AcDbEntity
  8
KONTUR
100
AcDbCircle
 10
1020.184719331
 20
1261.9486355726
 30
0.0
 40
1.5
  0
CIRCLE
  5
DD
330
1F
100
AcDbEntity
  8
KONTUR
100
AcDbCircle
 10
1039.884719331
 20
1261.9486355726
 30
0.0
 40
1.5
  0
CIRCLE
  5
DE
330
1F
100
AcDbEntity
  8
KONTUR
100
AcDbCircle
 10
1059.584719331
 20
1261.9486355726
 30
0.0
 40
1.5
  0
CIRCLE
  5
DF
330
1F
100
AcDbEntity
  8
KONTUR
100
AcDbCircle
 10
1079.284719331
 20
1261.9486355726
 30
0.0
 40
1.5
  0
CIRCLE
  5
E0
330
1F
100
AcDbEntity
  8
KONTUR
100
AcDbCircle
 10
1098.984719331
 20
1261.9486355726
 30
0.0
 40
1.5
  0
CIRCLE
  5
E1
330
1F
100
AcDbEntity
  8
KONTUR
100
AcDbCircle
 10
1118.684719331
 20
1261.9486355726
 30
0.0
 40
1.5
  0
CIRCLE
  5
E2
330
1F
100
AcDbEntity
  8
KONTUR
100
AcDbCircle
 10
1138.384719331
 20
1261.9486355726
 30
0.0
 40
1.5
  0
CIRCLE
  5
E3
330
1F
100
AcDbEntity
  8
KONTUR
100
AcDbCircle
 10
1158.084719331
 20
1261.9486355726
 30
0.0
 40
1.5
  0
CIRCLE
  5
E4
330
1F
100
AcDbEntity
  8
KONTUR
100
AcDbCircle
 10
1177.784719331
 20
1261.9486355726
 30
0.0
 40
1.5
  0
CIRCLE
  5
E5
330
1F
100
AcDbEntity
  8
KONTUR
100
AcDbCircle
 10
1197.484719331
 20
1261.9486355726
 30
0.0
 40
1.5
  0
CIRCLE
  5
E6
330
1F
100
AcDbEntity
  8
KONTUR
100
AcDbCircle
 10
1217.184719331
 20
1261.9486355726
 30
0.0
 40
1.5
  0
CIRCLE
  5
E7
330
1F
100
AcDbEntity
  8
KONTUR
100
AcDbCircle
 10
1236.884719331
 20
1261.9486355726
 30
0.0
 40
1.5
  0
CIRCLE
  5
E8
330
1F
100
AcDbEntity
  8
KONTUR
100
AcDbCircle
 10
1295.984719331
 20
1261.9486355726
 30
0.0
 40
1.5
  0
LINE
  5
E9
330
1F
100
AcDbEntity
  8
KONTUR
100
AcDbLine
 10
610.492334423
 20
1260.531939616
 30
0.0
 11
610.4809508424
 21
1260.5547715473
 31
0.0
  0
ARC
  5
EA
330
1F
100
AcDbEntity
  8
KONTUR
100
AcDbCircle
 10
613.584719331
 20
1251.0486355726
 30
0.0
 40
9.974763155082854
100
AcDbArc
 50
97.7066600754
 51
108.0604891642
  0
LINE
  5
EB
330
1F
100
AcDbEntity
  8
KONTUR
100
AcDbLine
 10
612.2470898602
 20
1260.9333028608
 30
0.0
 11
612.874719331
 21
1260.9333028608
 31
0.0
  0
LINE
  5
EC
330
1F
100
AcDbEntity
  8
KONTUR
100
AcDbLine
 10
612.874719331
 20
1260.9333028608
 30
0.0
 11
612.874719331
 21
1260.531939616
 31
0.0
  0
ARC
  5
ED
330
1F
100
AcDbEntity
  8
KONTUR
100
AcDbCircle
 10
613.5846131893
 20
1249.5069281831
 30
0.0
 40
11.04784261230244
100
AcDbArc
 50
90.5455823027
 51
93.68415492
  0
LINE
  5
EE
330
1F
100
AcDbEntity
  8
KONTUR
100
AcDbLine
 10
614.294719331
 20
1260.7569721963
 30
0.0
 11
614.294719331
 21
1260.9333028608
 31
0.0
  0
LINE
  5
EF
330
1F
100
AcDbEntity
  8
KONTUR
100
AcDbLine
 10
614.294719331
 20
1260.9333028608
 30
0.0
 11
614.9223488018
 21
1260.9333028608
 31
0.0
  0
ARC
  5
F0
330
1F
100
AcDbEntity
  8
KONTUR
100
AcDbCircle
 10
613.584719331
 20
1251.0486355726
 30
0.0
 40
9.974763155082925
100
AcDbArc
 50
71.9395108358
 51
76.6739348043
  0
LINE
  5
F1
330
1F
100
AcDbEntity
  8
KONTUR
100
AcDbLine
 10
1307.0703374105
 20
1260.9333028608
 30
0.0
 11
1307.1066206127
 21
1260.9333028608
 31
0.0
  0
ARC
  5
F2
330
1F
100
AcDbEntity
  8
KONTUR
100
AcDbCircle
 10
1308.235813078
 20
1254.7965439503
 30
0.0
 40
6.241884008075321
100
AcDbArc
 50
108.183510037
 51
113.2405222016
  0
ARC
  5
F3
330
1F
100
AcDbEntity
  8
KONTUR
100
AcDbCircle
 10
1306.2252589962
 20
1256.0010425714
 30
0.0
 40
4.553744253398878
100
AcDbArc
 50
89.232368245
 51
93.1540094791
  0
ARC
  5
F4
330
1F
100
AcDbEntity
  8
KONTUR
100
AcDbCircle
 10
1309.0713692187
 20
1255.0855606756
 30
0.0
 40
5.939859533839637
100
AcDbArc
 50
100.1037624198
 51
104.8277354098
  0
LINE
  5
F5
330
1F
100
AcDbEntity
  8
KONTUR
100
AcDbLine
 10
1308.0293314952
 20
1260.9333028608
 30
0.0
 11
1308.91422924
 21
1260.9333028608
 31
0.0
  0
ARC
  5
F6
330
1F
100
AcDbEntity
  8
KONTUR
100
AcDbCircle
 10
1307.9501551586
 20
1256.3741346323
 30
0.0
 40
4.659984310116296
100
AcDbArc
 50
63.1555593423
 51
78.0602176539
  0
ARC
  5
F7
330
1F
100
AcDbEntity
  8
KONTUR
100
AcDbCircle
 10
1310.5941398995
 20
1254.165669547
 30
0.0
 40
6.389103673392388
100
AcDbArc
 50
85.154547682
 51
94.845452318
  0
ARC
  5
F8
330
1F
100
AcDbEntity
  8
KONTUR
100
AcDbCircle
 10
1309.0295089595
 20
1256.3741346323
 30
0.0
 40
4.659984310128485
100
AcDbArc
 50
63.1555593423
 51
78.0602176539
  0
LINE
  5
F9
330
1F
100
AcDbEntity
  8
KONTUR
100
AcDbLine
 10
1309.9935830408
 20
1260.9333028608
 30
0.0
 11
1310.0991012515
 21
1260.9333028608
 31
0.0
  0
ARC
  5
FA
330
1F
100
AcDbEntity
  8
KONTUR
100
AcDbCircle
 10
1308.0818561548
 20
1255.0130051106
 30
0.0
 40
6.01413507130413
100
AcDbArc
 50
70.871073669
 51
79.8654341683
  0
LINE
  5
FB
330
1F
100
AcDbEntity
  8
KONTUR
100
AcDbLine
 10
1309.1401071669
 20
1260.9333028608
 30
0.0
 11
1308.91422924
 21
1260.9333028608
 31
0.0
  0
LINE
  5
FC
330
1F
100
AcDbEntity
  8
KONTUR
100
AcDbLine
 10
1309.9935830408
 20
1260.9333028608
 30
0.0
 11
1309.9743386711
 21
1260.5601434471
 31
0.0
  0
LINE
  5
FD
330
1F
100
AcDbEntity
  8
KONTUR
100
AcDbLine
 10
1302.492334423
 20
1260.5319396161
 30
0.0
 11
1302.4809508424
 21
1260.5547715473
 31
0.0
  0
ARC
  5
FE
330
1F
100
AcDbEntity
  8
KONTUR
100
AcDbCircle
 10
1305.584719331
 20
1251.0486355726
 30
0.0
 40
9.974763155083034
100
AcDbArc
 50
97.7066600754
 51
108.0604891642
  0
LINE
  5
FF
330
1F
100
AcDbEntity
  8
KONTUR
100
AcDbLine
 10
1304.2470898602
 20
1260.9333028608
 30
0.0
 11
1304.874719331
 21
1260.9333028608
 31
0.0
  0
LINE
  5
100
330
1F
100
AcDbEntity
  8
KONTUR
100
AcDbLine
 10
1304.874719331
 20
1260.9333028608
 30
0.0
 11
1304.874719331
 21
1260.5319396161
 31
0.0
  0
ARC
  5
101
330
1F
100
AcDbEntity
  8
KONTUR
100
AcDbCircle
 10
1305.584719331
 20
1249.5044646866
 30
0.0
 40
11.0503078382572
100
AcDbArc
 50
86.3161166333
 51
93.6838833667
  0
LINE
  5
102
330
1F
100
AcDbEntity
  8
KONTUR
100
AcDbLine
 10
1306.294719331
 20
1260.5319396161
 30
0.0
 11
1306.294719331
 21
1260.9333028608
 31
0.0
  0
LINE
  5
103
330
1F
100
AcDbEntity
  8
KONTUR
100
AcDbLine
 10
1306.294719331
 20
1260.9333028608
 30
0.0
 11
1306.9223488018
 21
1260.9333028608
 31
0.0
  0
ARC
  5
104
330
1F
100
AcDbEntity
  8
KONTUR
100
AcDbCircle
 10
1305.584719331
 20
1251.0486355726
 30
0.0
 40
9.974763155083068
100
AcDbArc
 50
71.9395108358
 51
82.2933399246
  0
LINE
  5
105
330
1F
100
AcDbEntity
  8
KONTUR
100
AcDbLine
 10
1308.6884878196
 20
1260.5547715473
 30
0.0
 11
1308.677104239
 21
1260.5319396161
 31
0.0
  0
LINE
  5
106
330
1F
100
AcDbEntity
  8
KONTUR
100
AcDbLine
 10
615.874719331
 20
1260.9333028608
 30
0.0
 11
615.874719331
 21
1260.531939616
 31
0.0
  0
ARC
  5
107
330
1F
100
AcDbEntity
  8
KONTUR
100
AcDbCircle
 10
616.584719331
 20
1249.5044646867
 30
0.0
 40
11.05030783815347
100
AcDbArc
 50
86.3161166332
 51
93.6838833668
  0
LINE
  5
108
330
1F
100
AcDbEntity
  8
KONTUR
100
AcDbLine
 10
617.294719331
 20
1260.531939616
 30
0.0
 11
617.294719331
 21
1260.9333028608
 31
0.0
  0
LINE
  5
109
330
1F
100
AcDbEntity
  8
KONTUR
100
AcDbLine
 10
617.294719331
 20
1260.9333028608
 30
0.0
 11
617.9223488018
 21
1260.9333028608
 31
0.0
  0
ARC
  5
10A
330
1F
100
AcDbEntity
  8
KONTUR
100
AcDbCircle
 10
616.584719331
 20
1251.0486355726
 30
0.0
 40
9.974763155082991
100
AcDbArc
 50
71.9395108358
 51
82.2933399246
  0
LINE
  5
10B
330
1F
100
AcDbEntity
  8
KONTUR
100
AcDbLine
 10
619.6884878196
 20
1260.5547715473
 30
0.0
 11
619.677104239
 21
1260.531939616
 31
0.0
  0
LINE
  5
10C
330
1F
100
AcDbEntity
  8
KONTUR
100
AcDbLine
 10
613.492334423
 20
1260.531939616
 30
0.0
 11
613.4809508424
 21
1260.5547715473
 31
0.0
  0
ARC
  5
10D
330
1F
100
AcDbEntity
  8
KONTUR
100
AcDbCircle
 10
616.584719331
 20
1251.0486355726
 30
0.0
 40
9.974763155083037
100
AcDbArc
 50
97.7066600754
 51
108.0604891642
  0
LINE
  5
10E
330
1F
100
AcDbEntity
  8
KONTUR
100
AcDbLine
 10
615.2470898602
 20
1260.9333028608
 30
0.0
 11
615.874719331
 21
1260.9333028608
 31
0.0
  0
LINE
  5
10F
330
1F
100
AcDbEntity
  8
0
  6
Continuous
 62
     7
370
    18
100
AcDbLine
 10
643.4237391697
 20
1297.7986355726
 30
0.0
 11
631.084719331
 21
1297.7986355726
 31
0.0
  0
LINE
  5
110
330
1F
100
AcDbEntity
  8
0
  6
Continuous
 62
     7
370
    18
100
AcDbLine
 10
671.084719331
 20
1297.7986355726
 30
0.0
 11
643.4237391697
 21
1297.7986355726
 31
0.0
  0
LINE
  5
111
330
1F
100
AcDbEntity
  8
0
  6
Continuous
 62
     7
370
    18
100
AcDbLine
 10
1253.6737307577
 20
1297.7986355725
 30
0.0
 11
1251.084719331
 21
1297.7986355725
 31
0.0
  0
LINE
  5
112
330
1F
100
AcDbEntity
  8
0
  6
Continuous
 62
     7
370
    18
100
AcDbLine
 10
1291.084719331
 20
1297.7986355725
 30
0.0
 11
1253.6737307577
 21
1297.7986355725
 31
0.0
  0
LINE
  5
113
330
1F
100
AcDbEntity
  8
0
  6
Continuous
 62
     7
370
    18
100
AcDbLine
 10
1258.1570603153
 20
1303.8887778854
 30
0.0
 11
1256.234719331
 21
1303.8887778854
 31
0.0
  0
LINE
  5
114
330
1F
100
AcDbEntity
  8
0
  6
Continuous
 62
     7
370
    18
100
AcDbLine
 10
1285.934719331
 20
1303.8887778854
 30
0.0
 11
1258.1570603153
 21
1303.8887778854
 31
0.0
  0
LINE
  5
115
330
1F
100
AcDbEntity
  8
0
  6
Continuous
 62
     7
370
    18
100
AcDbLine
 10
1258.7199384041
 20
1304.6739286244
 30
0.0
 11
1285.2881413537
 21
1304.6739286244
 31
0.0
  0
LINE
  5
116
330
1F
100
AcDbEntity
  8
0
  6
Continuous
 62
     7
370
    18
100
AcDbLine
 10
1256.8812973084
 20
1304.6739286244
 30
0.0
 11
1258.7199384041
 21
1304.6739286244
 31
0.0
  0
LINE
  5
117
330
1F
100
AcDbEntity
  8
0
  6
Continuous
 62
     7
370
    18
100
AcDbLine
 10
1256.234719331
 20
1303.461011399
 30
0.0
 11
1285.934719331
 21
1303.461011399
 31
0.0
  0
LINE
  5
118
330
1F
100
AcDbEntity
  8
0
  6
Continuous
 62
     7
370
    18
100
AcDbLine
 10
645.3964415613
 20
1303.8887778854
 30
0.0
 11
636.234719331
 21
1303.8887778854
 31
0.0
  0
LINE
  5
119
330
1F
100
AcDbEntity
  8
0
  6
Continuous
 62
     7
370
    18
100
AcDbLine
 10
665.934719331
 20
1303.8887778854
 30
0.0
 11
645.3964415613
 21
1303.8887778854
 31
0.0
  0
LINE
  5
11A
330
1F
100
AcDbEntity
  8
0
  6
Continuous
 62
     7
370
    18
100
AcDbLine
 10
636.234719331
 20
1303.461011399
 30
0.0
 11
665.934719331
 21
1303.461011399
 31
0.0
  0
LINE
  5
11B
330
1F
100
AcDbEntity
  8
0
  6
Continuous
 62
     7
370
    18
100
AcDbLine
 10
645.6441126141
 20
1304.6739286244
 30
0.0
 11
665.2881413536
 21
1304.6739286244
 31
0.0
  0
LINE
  5
11C
330
1F
100
AcDbEntity
  8
0
  6
Continuous
 62
     7
370
    18
100
AcDbLine
 10
636.8812973084
 20
1304.6739286244
 30
0.0
 11
645.6441126141
 21
1304.6739286244
 31
0.0
  0
LINE
  5
11D
330
1F
100
AcDbEntity
  8
0
  6
Continuous
 62
     7
370
    18
100
AcDbLine
 10
1354.884719331
 20
428.4486355726
 30
0.0
 11
1354.884719331
 21
1256.7486355726
 31
0.0
  0
LINE
  5
11E
330
1F
100
AcDbEntity
  8
0
  6
Continuous
 62
     7
370
    18
100
AcDbLine
 10
1354.884719331
 20
1256.7486355726
 30
0.0
 11
567.284719331
 21
1256.7486355726
 31
0.0
  0
LINE
  5
11F
330
1F
100
AcDbEntity
  8
0
  6
Continuous
 62
     7
370
    18
100
AcDbLine
 10
567.284719331
 20
1256.7486355726
 30
0.0
 11
567.284719331
 21
428.4486355726
 31
0.0
  0
LINE
  5
120
330
1F
100
AcDbEntity
  8
0
  6
Continuous
 62
     7
370
    18
100
AcDbLine
 10
587.084719331
 20
408.6486355726
 30
0.0
 11
1335.084719331
 21
408.6486355726
 31
0.0
  0
LINE
  5
121
330
1F
100
AcDbEntity
  8
0
  6
Continuous
 62
     7
370
    18
100
AcDbLine
 10
604.584719331
 20
1260.4486355726
 30
0.0
 11
604.584719331
 21
1257.9486355726
 31
0.0
  0
LINE
  5
122
330
1F
100
AcDbEntity
  8
0
  6
Continuous
 62
     7
370
    18
100
AcDbLine
 10
1317.584719331
 20
1260.4486355726
 30
0.0
 11
1317.584719331
 21
1257.9486355726
 31
0.0
  0
LINE
  5
123
330
1F
100
AcDbEntity
  8
RAHMEN
 62
     7
370
    18
100
AcDbLine
 10
961.084719331
 20
1261.9486355726
 30
0.0
 11
980.784719331
 21
1261.9486355726
 31
0.0
  0
POINT
  5
124
330
1F
100
AcDbEntity
  8
RAHMEN
 62
     7
370
    18
100
AcDbPoint
 10
666.084719331
 20
1260.4486355726
 30
0.0
  0
POINT
  5
125
330
1F
100
AcDbEntity
  8
RAHMEN
 62
     7
370
    18
100
AcDbPoint
 10
1050.084719331
 20
865.2986355726
 30
0.0
  0
POINT
  5
126
330
1F
100
AcDbEntity
  8
RAHMEN
 62
     7
370
    18
100
AcDbPoint
 10
970.934719331
 20
1261.9486355726
 30
0.0
  0
DIMENSION
  5
127
330
1F
100
AcDbEntity
  8
RAHMEN
 62
     7
100
AcDbDimension
  2
_D
 10
566.084719331
 20
1406.0486355726
 30
0.0
 11
616.084719331
 21
1406.0486355726
 31
0.0
 70
   160
  1
<>
 71
     2
 42
-1.0
  3
SLDDIMSTYLE0
100
AcDbAlignedDimension
 13
666.084719331
 23
1260.4486355726
 33
0.0
 14
566.084719331
 24
1256.9365035382
 34
0.0
100
AcDbRotatedDimension
  0
DIMENSION
  5
135
330
1F
100
AcDbEntity
  8
RAHMEN
 62
     7
100
AcDbDimension
  2
_D_1
 10
1356.084719331
 20
1406.0486355726
 30
0.0
 11
1203.084719331
 21
1406.0486355726
 31
0.0
 70
   160
  1
<>
 71
     2
 42
-1.0
  3
SLDDIMSTYLE1
100
AcDbAlignedDimension
 13
1050.084719331
 23
865.2986355726
 33
0.0
 14
1356.084719331
 24
1256.9365035382
 34
0.0
100
AcDbRotatedDimension
  0
DIMENSION
  5
140
330
1F
100
AcDbEntity
  8
RAHMEN
 62
     7
100
AcDbDimension
  2
_D_2
 10
1456.087244331
 20
1306.0486355726
 30
0.0
 11
1456.087244331
 21
1085.6736355726
 31
0.0
 70
   160
  1
<>
 71
     2
 42
-1.0
  3
SLDDIMSTYLE2
100
AcDbAlignedDimension
 13
1050.084719331
 23
865.2986355726
 33
0.0
 14
1271.084719331
 24
1306.0486355726
 34
0.0
 50
90.0
100
AcDbRotatedDimension
  0
DIMENSION
  5
14B
330
1F
100
AcDbEntity
  8
RAHMEN
 62
     7
100
AcDbDimension
  2
_D_3
 10
1356.084719331
 20
1476.0486355726
 30
0.0
 11
1163.509719331
 21
1476.0486355726
 31
0.0
 70
   160
  1
<>
 71
     2
 42
-1.0
  3
SLDDIMSTYLE2
100
AcDbAlignedDimension
 13
970.934719331
 23
1261.9486355726
 33
0.0
 14
1356.084719331
 24
1256.9365035382
 34
0.0
100
AcDbRotatedDimension
  0
INSERT
  5
160
330
1F
100
AcDbEntity
  8
RAHMEN
 62
     7
100
AcDbBlockReference
  2
SW_NOTE_0
 10
1067.9706390328
 20
1752.9898802195
 30
0.0
  0
LEADER
  5
162
330
1F
100
AcDbEntity
  8
RAHMEN
 62
     7
100
AcDbLeader
  3
SLDDIMSTYLE3
 76
     2
 10
666.084719331
 20
1260.4486355726
 30
0.0
 10
1067.9706390328
 20
1752.9898802195
 30
0.0
  0
INSERT
  5
16A
330
1F
100
AcDbEntity
  8
RAHMEN
 62
     7
100
AcDbBlockReference
  2
SW_NOTE_1
 10
1510.1122625216
 20
489.4450582075
 30
0.0
  0
LEADER
  5
16B
330
1F
100
AcDbEntity
  8
RAHMEN
 62
     7
100
AcDbLeader
  3
SLDDIMSTYLE3
 76
     2
 10
1050.084719331
 20
865.2986355726
 30
0.0
 10
1510.1122625216
 20
489.4450582075
 30
0.0
  0
INSERT
  5
173
330
1F
100
AcDbEntity
  8
RAHMEN
 62
     7
100
AcDbBlockReference
  2
SW_NOTE_2
 10
631.7976494286
 20
231.4248461231
 30
0.0
  0
INSERT
  5
17B
330
1F
100
AcDbEntity
  8
RAHMEN
 62
     7
100
AcDbBlockReference
  2
SW_NOTE_3
 10
1067.9706390328
 20
1636.6018261439
 30
0.0
  0
LEADER
  5
17C
330
1F
100
AcDbEntity
  8
RAHMEN
 62
     7
100
AcDbLeader
  3
SLDDIMSTYLE3
 76
     2
 10
970.934719331
 20
1261.9486355726
 30
0.0
 10
1067.9706390328
 20
1636.6018261439
 30
0.0
  0
ENDSEC
  0
SECTION
  2
OBJECTS
  0
DICTIONARY
  5
C
330
0
100
AcDbDictionary
281
     1
  3
ACAD_GROUP
350
D
  3
ACAD_LAYOUT
350
1A
  3
ACAD_MLINESTYLE
350
17
  3
ACAD_PLOTSETTINGS
350
19
  3
ACAD_PLOTSTYLENAME
350
E
  3
ACAD_SCALELIST
350
47
  0
DICTIONARY
  5
D
102
{ACAD_REACTORS
330
C
102
}
330
C
100
AcDbDictionary
281
     1
  0
DICTIONARY
  5
1A
102
{ACAD_REACTORS
330
C
102
}
330
C
100
AcDbDictionary
281
     1
  3
Layout1
350
1E
  3
Layout2
350
26
  3
Model
350
22
  0
DICTIONARY
  5
17
102
{ACAD_REACTORS
330
C
102
}
330
C
100
AcDbDictionary
281
     1
  3
Standard
350
18
  0
DICTIONARY
  5
19
102
{ACAD_REACTORS
330
C
102
}
330
C
100
AcDbDictionary
281
     1
  0
ACDBDICTIONARYWDFLT
  5
E
102
{ACAD_REACTORS
330
C
102
}
330
C
100
AcDbDictionary
281
     1
  3
Normal
350
F
100
AcDbDictionaryWithDefault
340
F
  0
DICTIONARY
  5
47
102
{ACAD_REACTORS
330
C
102
}
330
C
100
AcDbDictionary
281
     1
  3
A0
350
48
  3
A1
350
49
  3
A2
350
4A
  3
A3
350
4B
  3
A4
350
4C
  3
A5
350
4D
  3
A6
350
4E
  3
A7
350
4F
  3
A8
350
50
  3
A9
350
51
  3
B0
350
52
  3
B1
350
53
  3
B2
350
54
  3
B3
350
55
  3
B4
350
56
  3
B5
350
57
  3
B6
350
58
  3
B7
350
59
  3
B8
350
5A
  3
B9
350
5B
  3
C0
350
5C
  3
C1
350
5D
  3
C2
350
5E
  3
C3
350
5F
  3
C4
350
60
  3
C5
350
61
  3
C6
350
62
  3
C7
350
63
  3
C8
350
64
  3
C9
350
65
  3
D0
350
66
  3
D1
350
67
  3
D2
350
68
  0
LAYOUT
  5
1E
102
{ACAD_REACTORS
330
1A
102
}
330
1A
100
AcDbPlotSettings
  1

  2
none_device
  4

  6

 40
0.0
 41
0.0
 42
0.0
 43
0.0
 44
0.0
 45
0.0
 46
0.0
 47
0.0
 48
0.0
 49
0.0
140
0.0
141
0.0
142
1.0
143
1.0
 70
   688
 72
     1
 73
     0
 74
     5
  7

 75
    16
147
1.0
148
0.0
149
0.0
100
AcDbLayout
  1
Layout1
 70
     1
 71
     1
 10
0.0
 20
0.0
 11
420.0
 21
297.0
 12
0.0
 22
0.0
 32
0.0
 14
1.0000000000E+20
 24
1.0000000000E+20
 34
1.0000000000E+20
 15
-1.0000000000E+20
 25
-1.0000000000E+20
 35
-1.0000000000E+20
146
0.0
 13
0.0
 23
0.0
 33
0.0
 16
1.0
 26
0.0
 36
0.0
 17
0.0
 27
1.0
 37
0.0
 76
     0
330
1B
  0
LAYOUT
  5
26
102
{ACAD_REACTORS
330
1A
102
}
330
1A
100
AcDbPlotSettings
  1

  2
none_device
  4

  6

 40
0.0
 41
0.0
 42
0.0
 43
0.0
 44
0.0
 45
0.0
 46
0.0
 47
0.0
 48
0.0
 49
0.0
140
0.0
141
0.0
142
1.0
143
1.0
 70
   688
 72
     1
 73
     0
 74
     5
  7

 75
    16
147
1.0
148
0.0
149
0.0
100
AcDbLayout
  1
Layout2
 70
     1
 71
     2
 10
0.0
 20
0.0
 11
0.0
 21
0.0
 12
0.0
 22
0.0
 32
0.0
 14
0.0
 24
0.0
 34
0.0
 15
0.0
 25
0.0
 35
0.0
146
0.0
 13
0.0
 23
0.0
 33
0.0
 16
1.0
 26
0.0
 36
0.0
 17
0.0
 27
1.0
 37
0.0
 76
     0
330
23
  0
LAYOUT
  5
22
102
{ACAD_REACTORS
330
1A
102
}
330
1A
100
AcDbPlotSettings
  1

  2
none_device
  4
Letter_(8.50_x_11.00_Inches)
  6

 40
6.35
 41
6.35
 42
6.35000508
 43
6.35000508
 44
215.9
 45
279.4
 46
0.0
 47
0.0
 48
0.0
 49
0.0
140
0.0
141
0.0
142
1.0
143
1.0
 70
  1712
 72
     1
 73
     0
 74
     0
  7

 75
     0
147
1.0
148
0.0
149
0.0
100
AcDbLayout
  1
Model
 70
     1
 71
     0
 10
0.0
 20
0.0
 11
2970.0
 21
2100.0
 12
0.0
 22
0.0
 32
0.0
 14
0.0
 24
0.0
 34
0.0
 15
2970.0
 25
2100.0
 35
0.0
146
0.0
 13
0.0
 23
0.0
 33
0.0
 16
1.0
 26
0.0
 36
0.0
 17
0.0
 27
1.0
 37
0.0
 76
     0
330
1F
331
29
  0
MLINESTYLE
  5
18
102
{ACAD_REACTORS
330
17
102
}
330
17
100
AcDbMlineStyle
  2
Standard
 70
     0
  3

 62
   256
 51
90.0
 52
90.0
 71
     2
 49
0.5
 62
   256
  6
BYLAYER
 49
-0.5
 62
   256
  6
BYLAYER
  0
ACDBPLACEHOLDER
  5
F
102
{ACAD_REACTORS
330
E
102
}
330
E
  0
SCALE
  5
48
102
{ACAD_REACTORS
330
47
102
}
330
47
100
AcDbScale
 70
     0
300
1:1
140
1.0
141
1.0
290
     1
  0
SCALE
  5
49
102
{ACAD_REACTORS
330
47
102
}
330
47
100
AcDbScale
 70
     0
300
1:2
140
1.0
141
2.0
290
     0
  0
SCALE
  5
4A
102
{ACAD_REACTORS
330
47
102
}
330
47
100
AcDbScale
 70
     0
300
1:4
140
1.0
141
4.0
290
     0
  0
SCALE
  5
4B
102
{ACAD_REACTORS
330
47
102
}
330
47
100
AcDbScale
 70
     0
300
1:5
140
1.0
141
5.0
290
     0
  0
SCALE
  5
4C
102
{ACAD_REACTORS
330
47
102
}
330
47
100
AcDbScale
 70
     0
300
1:8
140
1.0
141
8.0
290
     0
  0
SCALE
  5
4D
102
{ACAD_REACTORS
330
47
102
}
330
47
100
AcDbScale
 70
     0
300
1:10
140
1.0
141
10.0
290
     0
  0
SCALE
  5
4E
102
{ACAD_REACTORS
330
47
102
}
330
47
100
AcDbScale
 70
     0
300
1:16
140
1.0
141
16.0
290
     0
  0
SCALE
  5
4F
102
{ACAD_REACTORS
330
47
102
}
330
47
100
AcDbScale
 70
     0
300
1:20
140
1.0
141
20.0
290
     0
  0
SCALE
  5
50
102
{ACAD_REACTORS
330
47
102
}
330
47
100
AcDbScale
 70
     0
300
1:30
140
1.0
141
30.0
290
     0
  0
SCALE
  5
51
102
{ACAD_REACTORS
330
47
102
}
330
47
100
AcDbScale
 70
     0
300
1:40
140
1.0
141
40.0
290
     0
  0
SCALE
  5
52
102
{ACAD_REACTORS
330
47
102
}
330
47
100
AcDbScale
 70
     0
300
1:50
140
1.0
141
50.0
290
     0
  0
SCALE
  5
53
102
{ACAD_REACTORS
330
47
102
}
330
47
100
AcDbScale
 70
     0
300
1:100
140
1.0
141
100.0
290
     0
  0
SCALE
  5
54
102
{ACAD_REACTORS
330
47
102
}
330
47
100
AcDbScale
 70
     0
300
2:1
140
2.0
141
1.0
290
     0
  0
SCALE
  5
55
102
{ACAD_REACTORS
330
47
102
}
330
47
100
AcDbScale
 70
     0
300
4:1
140
4.0
141
1.0
290
     0
  0
SCALE
  5
56
102
{ACAD_REACTORS
330
47
102
}
330
47
100
AcDbScale
 70
     0
300
8:1
140
8.0
141
1.0
290
     0
  0
SCALE
  5
57
102
{ACAD_REACTORS
330
47
102
}
330
47
100
AcDbScale
 70
     0
300
10:1
140
10.0
141
1.0
290
     0
  0
SCALE
  5
58
102
{ACAD_REACTORS
330
47
102
}
330
47
100
AcDbScale
 70
     0
300
100:1
140
100.0
141
1.0
290
     0
  0
SCALE
  5
59
102
{ACAD_REACTORS
330
47
102
}
330
47
100
AcDbScale
 70
     0
300
1/128" = 1'-0"
140
0.0078125
141
12.0
290
     0
  0
SCALE
  5
5A
102
{ACAD_REACTORS
330
47
102
}
330
47
100
AcDbScale
 70
     0
300
1/64" = 1'-0"
140
0.015625
141
12.0
290
     0
  0
SCALE
  5
5B
102
{ACAD_REACTORS
330
47
102
}
330
47
100
AcDbScale
 70
     0
300
1/32" = 1'-0"
140
0.03125
141
12.0
290
     0
  0
SCALE
  5
5C
102
{ACAD_REACTORS
330
47
102
}
330
47
100
AcDbScale
 70
     0
300
1/16" = 1'-0"
140
0.0625
141
12.0
290
     0
  0
SCALE
  5
5D
102
{ACAD_REACTORS
330
47
102
}
330
47
100
AcDbScale
 70
     0
300
3/32" = 1'-0"
140
0.09375
141
12.0
290
     0
  0
SCALE
  5
5E
102
{ACAD_REACTORS
330
47
102
}
330
47
100
AcDbScale
 70
     0
300
1/8" = 1'-0"
140
0.125
141
12.0
290
     0
  0
SCALE
  5
5F
102
{ACAD_REACTORS
330
47
102
}
330
47
100
AcDbScale
 70
     0
300
3/16" = 1'-0"
140
0.1875
141
12.0
290
     0
  0
SCALE
  5
60
102
{ACAD_REACTORS
330
47
102
}
330
47
100
AcDbScale
 70
     0
300
1/4" = 1'-0"
140
0.25
141
12.0
290
     0
  0
SCALE
  5
61
102
{ACAD_REACTORS
330
47
102
}
330
47
100
AcDbScale
 70
     0
300
3/8" = 1'-0"
140
0.375
141
12.0
290
     0
  0
SCALE
  5
62
102
{ACAD_REACTORS
330
47
102
}
330
47
100
AcDbScale
 70
     0
300
1/2" = 1'-0"
140
0.5
141
12.0
290
     0
  0
SCALE
  5
63
102
{ACAD_REACTORS
330
47
102
}
330
47
100
AcDbScale
 70
     0
300
3/4" = 1'-0"
140
0.75
141
12.0
290
     0
  0
SCALE
  5
64
102
{ACAD_REACTORS
330
47
102
}
330
47
100
AcDbScale
 70
     0
300
1" = 1'-0"
140
1.0
141
12.0
290
     0
  0
SCALE
  5
65
102
{ACAD_REACTORS
330
47
102
}
330
47
100
AcDbScale
 70
     0
300
1-1/2" = 1'-0"
140
1.5
141
12.0
290
     0
  0
SCALE
  5
66
102
{ACAD_REACTORS
330
47
102
}
330
47
100
AcDbScale
 70
     0
300
3" = 1'-0"
140
3.0
141
12.0
290
     0
  0
SCALE
  5
67
102
{ACAD_REACTORS
330
47
102
}
330
47
100
AcDbScale
 70
     0
300
6" = 1'-0"
140
6.0
141
12.0
290
     0
  0
SCALE
  5
68
102
{ACAD_REACTORS
330
47
102
}
330
47
100
AcDbScale
 70
     0
300
1'-0" = 1'-0"
140
12.0
141
12.0
290
     0
  0
ENDSEC
  0
EOF
